php使用ffmpeg获取视频信息

可以获取到视频的分辨率、文件大小、播放时长、编码格式、视频格式、音频编码、音频采样频率、等.....

废话不多说,直接上代码...


/**
 * Name: ffmpeg.php.
 * Author: JiaMeng <666@majiameng.com>
 * Date: 2018/7/12 14:39
 * Description: ffmpeg.php.
 */
class ffmpeg{
    const FFMPEG_COMMAND = '/usr/local/ffmpeg/bin/ffmpeg -i %s 2>&1';//操作ffmpeg命令
    const FFMPEG_COVER_COMMAND = '/usr/local/ffmpeg/bin/ffmpeg -i "%s" -y -f mjpeg -ss %s -t 0.001 -s "%s" "%s"';//获取视频封面


    /**
     * Description:  获取视频信息
     * Author: JiaMeng <666@majiameng.com>
     * Updater:
     * @param string $file 视频文件路径
     * @return array
     * |-- duration 播放时间   string(11) "00:00:34.83"
     * |-- seconds 播放时间(秒)   float(34.83)
     * |-- start 开始时间 0.000000
     * |-- bitrate 码率 单位 kb
     * |-- vcodec 编码格式 h264 (Baseline) (avc1 / 0x31637661)
     * |-- vformat
     * |-- resolution
     * |-- width
     * |-- height
     * |-- play_time
     * |-- size
     */
    static function video_info($file) {
        /** 通过使用输出缓冲,获取到ffmpeg所有输出的内容 */
        ob_start();
        passthru(sprintf(self::FFMPEG_COMMAND, $file));
        $info = ob_get_contents();
        ob_end_clean();

        $result = array();
        // Duration: 01:24:12.73, start: 0.000000, bitrate: 456 kb/s
        if (preg_match("/Duration: (.*?), start: (.*?), bitrate: (\d*) kb\/s/", $info, $match)) {
            $result['duration'] = $match[1]; // 提取出播放时间
            $da = explode(':', $match[1]);
            $result['seconds'] = $da[0] * 3600 + $da[1] * 60 + $da[2]; // 转换为秒
            $result['start'] = $match[2]; // 开始时间
            $result['bitrate'] = $match[3]; // bitrate 码率 单位 kb
        }

        // Stream #0.1: Video: rv40, yuv420p, 512x384, 355 kb/s, 12.05 fps, 12 tbr, 1k tbn, 12 tbc
        //     Stream #0:0(eng): Video: h264 (Baseline) (avc1 / 0x31637661), yuvj420p(pc, smpte170m), 1920x1080, 42003 kb/s, SAR 1:1 DAR 16:9, 24 fps, 24 tbr, 90k tbn, 180k tbc (default)
        if (preg_match("/Video: (.*?)\, (.*?)\, (.*?)\, (.*?)[,\s]/", $info, $match)) {
            $result['vcodec'] = $match[1]; // 编码格式
            $result['vformat'] = $match[2]; // 视频格式

            $result['resolution'] = $match[3]; // 分辨率
            if(strpos($result['resolution'],'x') === false){
                // Stream #0:0(und): Video: h264 (Constrained Baseline) (avc1 / 0x31637661), yuv420p(tv, smpte170m/smpte170m/bt709), 320x240, 80 kb/s, 29.65 fps, 29.97 tbr, 90k tbn, 59.31 tbc (default)
                $result['resolution'] = $match[4]; // 分辨率
            }
            //1280x720 [SAR 1:1 DAR 16:9]   截取前面的分辨率,过滤后边部分
            $result['resolution'] = strstr($result['resolution'], ' ', TRUE);

            $a = explode('x', $result['resolution']);
            $result['width'] = empty($a[0])?'':$a[0];
            $result['height'] = empty($a[1])?'':$a[1];
        }

        // Stream #0.0: Audio: cook, 44100 Hz, stereo, s16, 96 kb/s
        if (preg_match("/Audio: (\w*), (\d*) Hz/", $info, $match)) {
            $result['acodec'] = $match[1];       // 音频编码
            $result['asamplerate'] = $match[2];  // 音频采样频率
        }

        if (isset($result['seconds']) && isset($result['start'])) {
            $result['play_time'] = $result['seconds'] + $result['start']; // 实际播放时间
        }
        if(empty($result['bitrate']) || empty($result['play_time'])) {
            $result['size'] = 0;
        }else {
            $result['size'] = $result['bitrate'] * $result['play_time'] / 8;// 文件大小
        }
        return $result;
    }
    
        /**
     * Description:  获取视频封面
     * Author: JiaMeng <666@majiameng.com>
     * Updater:
     * @param string $file 视频文件路径
     * @param string $videoCoverName 生成的封面文件路径
     * @param string $resolution    分辨率
     * @param int $time 截取封面图的开始时间
     * @return bool|string
     */
    static public function getVideoCover($file,$videoCoverName,$resolution,$time=1){
        $resolution = strstr($resolution, ' ', TRUE);
        $resolution = empty($resolution) ? '320x240' : $resolution;

        $command = sprintf(self::FFMPEG_COVER_COMMAND, $file,$time,$resolution,$videoCoverName);
        exec($command.' 2>&1 ',$output, $status);
        if($status == 0){
            return true;
        }
        return '生成视频封面失败,error:'.implode(',',$output);
    }


}


怎么用这个类就不用我说了把

Last modification:November 4th, 2020 at 07:17 pm
如果觉得我的文章对你有用,请随意赞赏